Jump to content


Photo

Can't mount BIN/CUE with Alcohol 52%


  • Please log in to reply
8 replies to this topic

#1 TripleD

TripleD

    1% Member

  • Members
  • Pip
  • 5 posts

Posted 30 July 2009 - 03:57 AM

Hi there folks,

I just downloaded Alcohol 52% FREE version 1.9.8 (build 7612) for the first time, as I just installed Windows 7 Build 7100.

I then tried to mount some iso files with it, and that went like a clockwork.

I then tried to mount some files that were BIN/CUE, and that just didn't happen... Is it me or what? It just came op with a pop up saying "file not accessible" or something like that.

Cheers

TripleD

Edited by Charalambos, 30 July 2009 - 01:50 PM.
Removing system report


#2 Charalambos

Charalambos

    Support Team Member

  • Support Team
  • 4,885 posts

Posted 30 July 2009 - 04:04 AM

Which version of Alcohol and Windows 7? Also:

http://forum.alcohol...showtopic=23848

#3 TripleD

TripleD

    1% Member

  • Members
  • Pip
  • 5 posts

Posted 30 July 2009 - 04:12 AM

QUOTE (Charalambos @ Jul 30 2009, 12:36 PM) <{POST_SNAPBACK}>
Which version of Alcohol and Windows 7? Also:

http://forum.alcohol...showtopic=23848


Updated [Thumbs up]

It's Alcohol 52% FREE version 1.9.8 (build 7612)

And

Windows 7 (Build 7100).


#4 Charalambos

Charalambos

    Support Team Member

  • Support Team
  • 4,885 posts

Posted 30 July 2009 - 01:59 PM

Which is the origin of that files? Are all the files listed in the CUE sheet in the same folder? Where are they located (a local disk or a network share, a simple or a RAID volume)? Can you post the contents of one of these .cue files as an example (just open it with notepad, copy the contented text and paste it in your post)?

#5 TripleD

TripleD

    1% Member

  • Members
  • Pip
  • 5 posts

Posted 30 July 2009 - 02:55 PM

QUOTE (Charalambos @ Jul 30 2009, 10:31 PM) <{POST_SNAPBACK}>
Which is the origin of that files? Are all the files listed in the CUE sheet in the same folder? Where are they located (a local disk or a network share, a simple or a RAID volume)? Can you post the contents of one of these .cue files as an example (just open it with notepad, copy the contented text and paste it in your post)?


I have them on my local HDD, which is non-raid

They are all in the same folder under C:\Motorlob\

Contents in cue file is:

FILE "Film.og.billeder.fra.motorlob" BINARY
TRACK 01 MODE1/2352
INDEX 01 00:00:00

And files are named like this:

Film.og.billeder.fra.motorlob.bin
Film.og.billeder.fra.motorlob.cue

So I don't really see any problems with them, do you?



#6 Charalambos

Charalambos

    Support Team Member

  • Support Team
  • 4,885 posts

Posted 31 July 2009 - 04:01 AM

QUOTE
FILE "Film.og.billeder.fra.motorlob" BINARY
TRACK 01 MODE1/2352
INDEX 01 00:00:00

And files are named like this:

Film.og.billeder.fra.motorlob.bin
Film.og.billeder.fra.motorlob.cue

So I don't really see any problems with them, do you?


The file name in the CUE sheet must be the full one. So "Film.og.billeder.fra.motorlob" must change to "Film.og.billeder.fra.motorlob.bin".

#7 TripleD

TripleD

    1% Member

  • Members
  • Pip
  • 5 posts

Posted 31 July 2009 - 12:31 PM

QUOTE (Charalambos @ Jul 31 2009, 12:33 PM) <{POST_SNAPBACK}>
QUOTE
FILE "Film.og.billeder.fra.motorlob" BINARY
TRACK 01 MODE1/2352
INDEX 01 00:00:00

And files are named like this:

Film.og.billeder.fra.motorlob.bin
Film.og.billeder.fra.motorlob.cue

So I don't really see any problems with them, do you?


The file name in the CUE sheet must be the full one. So "Film.og.billeder.fra.motorlob" must change to "Film.og.billeder.fra.motorlob.bin".


Okay I'll try that one out Charalambos



#8 TripleD

TripleD

    1% Member

  • Members
  • Pip
  • 5 posts

Posted 31 July 2009 - 01:15 PM

Yes it worked all right now Charalambos, don't know how I could have missed noticing that...

Thanks for helping me out Charalambos. [Thumbs up mate]

Cheers

TripleD

#9 Charalambos

Charalambos

    Support Team Member

  • Support Team
  • 4,885 posts

Posted 31 July 2009 - 03:28 PM

You are welcome. smile.gif




0 user(s) are reading this topic

0 members, 0 guests, 0 anonymous users